<?xml version="1.0" standalone="no"?>
<!DOCTYPE svg PUBLIC "-//W3C//DTD SVG 1.1//EN" "http://www.w3.org/Graphics/SVG/1.1/DTD/svg11.dtd" >
<!--
2013-9-30: Created.
-->
<svg>
<metadata>
Created by iconfont
</metadata>
<defs>

<font id="iconfont" horiz-adv-x="1024" >
  <font-face
    font-family="iconfont"
    font-weight="500"
    font-stretch="normal"
    units-per-em="1024"
    ascent="896"
    descent="-128"
  />
    <missing-glyph />
    
    <glyph glyph-name="tubiao106" unicode="&#58925;" d="M821.3780832-9.564154400000007l-618.75438486 0c-77.56263545 0-140.62370713 63.0889541-140.62370712 140.68306934l0 393.90683907c0 15.55030371 12.57497754 28.13787334 28.12078388 28.13787333s28.12438125-12.58756963 28.12438125-28.13787333l0-393.90683907c0-46.54657529 37.85265263-84.41272002 84.37854112-84.41272002l618.75438485 0c46.5276876 0 84.38034023 37.86614473 84.38034024 84.41272002l0 393.90683907c0 15.55030371 12.57677666 28.13787334 28.12258301 28.13787333 15.5431081 0 28.11988477-12.58756963 28.11988476-28.13787333l0-393.90683907C961.99999122 53.52389971000002 898.9443169-9.564154400000007 821.3780832-9.564154400000007zM512.00268945 295.10180565999997l-99.7552538 99.79482921c25.92526729 14.45119541 43.50469219 42.09707901 43.50469218 73.85786982L455.75212783 609.4366749000001l112.50292324 0 0-140.68217021c0-31.76168994 17.57582753-59.40667354 43.50469219-73.85786982L512.00268945 295.10180565999997M512.00268945 227.23146444999998c7.19276836 0 14.39543057 2.69560195 19.88557207 8.19023995l185.23020499 185.30126015c10.92991377 10.93621026 7.24763408 19.89276768-8.23970919 19.89276768l-56.25595898 0c-15.48464502 0-28.12258301 12.63883711-28.12258301 28.13877246L624.50021622 637.57185c0 15.49903535-12.62894414 28.13697334-28.12438126 28.13697334l-168.75258574 0c-15.48644326 0-28.12438125-12.63793799-28.12438125-28.13697334l0-168.81644531c0-15.49993535-12.63613886-28.13877247-28.12438125-28.13877246l-56.25326074 0c-15.48554414 0-19.17052295-8.95655742-8.23521182-19.89276768l185.22840586-185.30126015C497.61175625 229.92706552000004 504.80452461 227.23146444999998 512.00268945 227.23146444999998L512.00268945 227.23146444999998zM399.50066622 750.11704599c0 15.49993535 12.58127402 28.13697334 28.12438125 28.13697335 15.55030371 0 28.12708037-12.63703887 28.12708036-28.13697335 0-15.6078668-12.57677666-28.1342751-28.12708036-28.13427509C412.08194023 721.98187178 399.50066622 734.5091792000001 399.50066622 750.11704599zM568.25505107 750.11704599c0 15.49993535 12.58217315 28.13697334 28.12258301 28.13697335 15.54760459 0 28.12438125-12.63703887 28.12438125-28.13697335 0-15.6078668-12.57587753-28.1342751-28.12438125-28.13427509C580.83722422 721.98187178 568.25505107 734.5091792000001 568.25505107 750.11704599zM427.62414834 778.25402021l168.75258574 0 0-56.27124931-168.75258574 0 0 56.27124931Z"  horiz-adv-x="1025" />

    
    <glyph glyph-name="danju" unicode="&#59004;" d="M881.2186 722.1934L774.903808 722.1934c-11.5579 0-20.9111-9.3624-20.9111-20.9111 0-11.5476 9.3532-20.9121 20.9111-20.9121l106.314752 0 0-703.151104L143.43168-22.780903999999964 143.43168 680.370176l108.030976 0c11.5589 0 20.9111 9.3645 20.9111 20.9121 0 11.5487-9.3532 20.9111-20.9111 20.9111L143.43168 722.193376c-23.0554 0-41.8222-18.7566-41.8222-41.8232l0-703.151104c0-23.0564 18.7668-41.8232 41.8222-41.8232l737.78688 0c23.0554 0 41.8232 18.7668 41.8232 41.8232L923.04176 680.370176C923.0418 703.4368 904.2739 722.1934 881.2186 722.1934zM346.3393 679.0636L678.310912 679.0636c11.5589 0 20.9121 9.3624 20.9121 20.9121 0 11.5476-9.3532 20.9101-20.9121 20.9101l-64.123904 0c0.3072 2.818 0.7363 5.5951 0.7363 8.4961 0 56.5678-46.0298 102.5966-102.5966 102.5966-56.5678 0-102.5976-46.0288-102.5976-102.5966 0-2.901 0.4291-5.6781 0.7352-8.4961l-64.123904 0c-11.5589 0-20.9111-9.3624-20.9111-20.9101C325.4272 688.4259999999999 334.7804 679.0636 346.3393 679.0636zM451.5512 729.3819c0 33.5114 27.262 60.7744 60.7744 60.7744 33.5114 0 60.7744-27.263 60.7744-60.7744 0-2.942-0.6738-5.6781-1.1233-8.4961L452.673536 720.8858C452.224 723.7038 451.5512 726.441 451.5512 729.3819zM302.1066 474.5226l420.436992 0c11.5589 0 20.9111 9.3635 20.9111 20.9111s-9.3522 20.9121-20.9111 20.9121L302.106624 516.3458c-11.5589 0-20.9111-9.3645-20.9111-20.9121S290.5487 474.5226 302.1066 474.5226zM302.1066 294.81370000000004l420.436992 0c11.5589 0 20.9111 9.3532 20.9111 20.9111s-9.3522 20.9121-20.9111 20.9121L302.106624 336.63689999999997c-11.5589 0-20.9111-9.3542-20.9111-20.9121S290.5487 294.81370000000004 302.1066 294.81370000000004zM302.1066 115.10479999999995l420.436992 0c11.5589 0 20.9111 9.3522 20.9111 20.9121 0 11.5579-9.3522 20.9101-20.9111 20.9101L302.106624 156.92700000000002c-11.5589 0-20.9111-9.3522-20.9111-20.9101C281.1955 124.457 290.5487 115.10479999999995 302.1066 115.10479999999995z"  horiz-adv-x="1024" />

    
    <glyph glyph-name="dayin" unicode="&#58915;" d="M777.4952928 505.47272213l59.54277653 0 0-59.53186133-59.54277653 0 0 59.53186133ZM569.12286187 505.47272213l148.84056853 0 0-59.53186133-148.84056853 0 0 59.53186133ZM360.7395168 88.71694613l297.68113707 0 0-59.53186133-297.68113707 0 0 59.53186133ZM360.7395168 237.55751572999998l297.68113707 0 0-59.53186133-297.68113707 0 0 59.53186133ZM182.1330176 178.02565332999995l59.53186133 0 0 119.07463787-59.53186133 0 0 59.53186133 654.90505173 0 0-59.53186133-59.54277653 0 0-119.07463787 59.54277653 0c65.08773227 0 89.297792 24.21005973 89.297792 89.297792l0 238.14927574c0 49.24968107-40.05902613 89.3087072-89.297792 89.3087072l-654.90505173 0c-49.24968107 0-89.2759616-40.05902613-89.2759616-89.3087072l0-238.14927574C92.857056 219.21986773000003 160.91373973 178.02565332999995 182.1330176 178.02565332999995zM985.87863787 505.47272213l0-238.14927573c0-123.0259648-80.93669867-148.84056853-148.84056854-148.84056853l-59.54277653 0 0-208.37242987-535.83041387 0 0 208.37242987-59.53186133 0c-49.6208 0-148.82965333 64.33457813-148.82965333 148.84056853l0 238.14927573c0 82.07188587 66.75776747 148.84056853 148.82965333 148.84056854l89.3087072 0L271.4417248 862.69663573l476.28763733 0 0-208.38334506 89.3087072 0C919.09904 654.31329067 985.87863787 587.5446079999999 985.87863787 505.47272213zM717.9634304-30.357691730000056l0 327.457984-416.755776 0 0-327.457984L717.9634304-30.357691730000056zM688.19749973 654.31329067L688.19749973 803.1538591999999l-357.22391466 0 0-148.84056853L688.19749973 654.31329067z"  horiz-adv-x="1024" />

    
    <glyph glyph-name="771bianjiqi_chaifendanyuange" unicode="&#58986;" d="M568.25 834h337.5c31.0635 0 56.25-25.1865 56.25-56.25v-787.5s-25.1865-56.25-56.25-56.25h-337.5v56.25h337.5v787.5h-337.6395M343.25 440.25h112.5v-112.5h-112.5v-112.5L174.5 384l168.75 168.75v-112.5z m226.6875 337.5H118.25v-787.5h451.8765l-0.7515-56.25H118.25C87.1865-66 62-40.813499999999976 62-9.75v787.5S87.1865 834 118.25 834h453.6585M849.5 384l-168.75-168.75v112.5h-112.5v112.5h112.5v112.5L849.5 384z"  horiz-adv-x="1024" />

    
    <glyph glyph-name="gouxuan" unicode="&#58881;" d="M464.18 127.55999999999995a44.88 44.88 0 0 0-31.8 13.2L247.04 325.98a45 45 0 0 0 63.66 63.72l153.42-153.48 391.98 391.98a45 45 0 0 0 63.66-63.6l-423.78-423.84a44.88 44.88 0 0 0-31.8-13.2zM512-96c-264.66 0-480 215.34-480 480s215.34 480 480 480c94.44 0 185.82-27.42 264.24-79.2a34.32 34.32 0 0 0-37.8-57.24A409.56 409.56 0 0 1 512 795.42 411.9 411.9 0 0 1 100.58 384 411.9 411.9 0 0 1 512-27.41999999999996a411.9 411.9 0 0 1 409.2 454.26 34.26 34.26 0 1 0 68.22 7.08c1.74-16.44 2.58-33.24 2.58-49.92 0-264.66-215.34-480-480-480z"  horiz-adv-x="1024" />

    
    <glyph glyph-name="liulan" unicode="&#58899;" d="M60.386 349.088c-5.7 0-11.469 1.393-16.814 4.339-16.884 9.3-23.035 30.526-13.748 47.417 7.243 13.148 180.659 321.809 481.929 321.809 301.106 0 476.772-308.499 484.096-321.631 9.397-16.835 3.37-38.096-13.46-47.5-16.813-9.383-38.102-3.381-47.498 13.475-1.596 2.822-163.379 285.831-423.138 285.831-260.452 0-419.181-282.805-420.75-285.661-6.37-11.547-18.302-18.079-30.617-18.079zM511.753 45.356c-301.27 0-474.686 308.671-481.929 321.81-9.288 16.896-3.137 38.125 13.748 47.426 16.883 9.28 38.076 3.163 47.405-13.72 1.581-2.851 161.129-285.695 420.775-285.695 259.756 0 421.542 283.021 423.149 285.88 9.424 16.801 30.699 22.816 47.503 13.405 16.812-9.417 22.841-30.644 13.443-47.465-7.322-13.135-182.988-321.641-484.094-321.641zM512.897 198.393c-102.35 0-185.621 83.264-185.621 185.607 0 102.357 83.271 185.624 185.621 185.624 102.35 0 185.609-83.267 185.609-185.624 0.001-102.344-83.259-185.607-185.609-185.607z m0 301.405c-63.851 0-115.798-51.946-115.798-115.797 0-63.837 51.948-115.783 115.798-115.783 63.839 0 115.784 51.946 115.784 115.783 0.001 63.851-51.945 115.797-115.784 115.797z"  horiz-adv-x="1024" />

    
    <glyph glyph-name="shouhuo" unicode="&#59417;" d="M928.299 618.432l-76.075 146.39c-18.795 36.074-65.365 64.34-106.048 64.34H278.421c-40.597 0-87.338-28.095-106.304-63.914l-76.01-143.403C79.7 590.805 66.88 539.093 66.88 504.043v-481.75a83.52 83.52 0 0 1 83.477-83.456h723.328a83.541 83.541 0 0 1 83.456 83.456V500.608c-0.021 35.008-12.672 86.784-28.842 117.824z m-782.955-22.613l75.968 143.36c9.515 17.92 36.736 34.346 57.11 34.346h467.775c20.267 0 47.275-16.426 56.683-34.389l76.053-146.347c3.606-6.954 6.955-15.872 10.07-25.429H134.187c3.37 10.688 7.061 20.8 11.157 28.459z m756.16-573.526c0-15.317-12.459-27.818-27.84-27.818H150.336a27.84 27.84 0 0 0-27.819 27.818v481.75c0 2.218 0.427 5.162 0.64 7.658h777.408c0.342-3.69 0.939-7.829 0.939-11.093v-478.315zM745.92 358.464L605.76 208.747l-56.533 56.448a27.819 27.819 0 1 1-39.36-39.339l76.288-76.075c5.44-5.44 12.501-8.17 19.626-8.17 3.862 0 7.638 1.002 11.307 2.624 4.053 1.408 7.872 3.584 11.03 6.89l158.463 169.28a27.861 27.861 0 0 1-40.661 38.059z m-316.885-40.661H262.037a27.84 27.84 0 0 1 0-55.659h166.998a27.819 27.819 0 1 1 0 55.659z m-84.438-118.678H261.12a27.84 27.84 0 0 1 0-55.637h83.477a27.819 27.819 0 0 1 0 55.637z"  horiz-adv-x="1024" />

    
    <glyph glyph-name="batch-import" unicode="&#59195;" d="M205.76 858.56v-127.78666667H50.24v-821.33333333h768V37.226666669999986H973.86666667v821.33333333H205.76z m559.14666667-895.78666667h-661.33333334v714.66666667h661.33333334v-714.66666667z m155.52 127.78666667H818.13333333V730.77333333H259.09333333v74.45333334h661.33333334v-714.66666667zM400.32 214.50666666999996v297.6h53.33333333v-297.6l124.16 124.16 37.76-37.76-188.58666666-188.48-188.58666667 188.58666666 37.76 37.76 124.16-124.26666666z"  horiz-adv-x="1024" />

    
    <glyph glyph-name="saomiao" unicode="&#59036;" d="M951.88992 350.16704H72.11008A33.8432 33.8432 0 0 0 38.272 384a33.84832 33.84832 0 0 0 33.83808 33.83808h879.77984a33.83296 33.83296 0 0 0 33.83808-33.83808 33.83296 33.83296 0 0 0-33.83808-33.83296zM850.37568-55.88992h-203.02336a33.80736 33.80736 0 0 0-33.83808 33.83808 33.80736 33.80736 0 0 0 33.83808 33.83808h203.02336a33.8432 33.8432 0 0 1 33.83296 33.83296v169.1904a33.81248 33.81248 0 0 0 33.83808 33.83808 33.80736 33.80736 0 0 0 33.83808-33.83808v-169.19552c0.00512-55.95648-45.53728-101.504-101.50912-101.504zM342.8096-55.88992H173.6192c-55.9616 0-101.50912 45.54752-101.50912 101.50912v169.19552a33.82784 33.82784 0 0 0 33.83296 33.83808 33.82784 33.82784 0 0 0 33.83808-33.83808v-169.19552a33.8688 33.8688 0 0 1 33.83296-33.82784h169.1904a33.83296 33.83296 0 0 0 33.83808-33.83808 33.8176 33.8176 0 0 0-33.83296-33.8432zM105.94304 519.35744a33.8432 33.8432 0 0 0-33.83296 33.83296V722.37568c0 55.96672 45.54752 101.51424 101.50912 101.51424h169.1904a33.84832 33.84832 0 0 0 33.83808-33.83808 33.84832 33.84832 0 0 0-33.83808-33.83296H173.6192c-18.64192 0-33.83296-15.19104-33.83296-33.83808v-169.18528a33.84832 33.84832 0 0 0-33.8432-33.83808zM918.05184 519.35744a33.82784 33.82784 0 0 0-33.83808 33.83296V722.37568a33.8688 33.8688 0 0 1-33.83296 33.83808h-203.02336a33.82784 33.82784 0 0 0-33.83808 33.83296 33.82784 33.82784 0 0 0 33.83808 33.83808h203.02336c55.97184 0 101.51424-45.54752 101.51424-101.51424v-169.18528a33.83296 33.83296 0 0 0-33.8432-33.82784z"  horiz-adv-x="1024" />

    
    <glyph glyph-name="zuofei1" unicode="&#58880;" d="M741.20029297 174.89941406000003l142.79941406 143.10087891c8.70029297 8.39970703 13.5 19.8 13.20029297 31.79970703 0 12.30029297-4.5 23.4-13.20029297 31.79970703-17.1 17.1-46.8 17.1-63.9 0L676.99970703 238.49970702999997 533.89970703 381.29999999999995c-17.1 17.1-46.8 17.1-63.9 0-8.69941406-8.39970703-13.19941406-20.10058594-13.19941406-32.10029297 0-11.99970703 4.5-23.4 13.19941406-31.79970703l142.80029297-143.1-142.80029297-143.1c-8.69941406-8.70029297-13.19941406-20.10058594-13.19941406-32.10029297 0-11.99970703 4.5-23.4 13.19941406-31.79970703 17.1-17.1 46.8-17.1 63.9 0l143.1 143.1L820.10058594-32.700000000000045c8.70029297-8.70029297 19.8-13.20029297 32.10029297-13.20029297 11.99970703 0 23.4 4.5 31.79970703 13.20029297 8.70029297 8.39970703 13.20029297 19.8 13.20029297 31.79970703s-4.5 23.4-13.20029297 32.10029297L741.20117188 174.90029297zM401.00029297 27.90058594000004H232.70029297c-4.5 0.9-14.4 10.8-15.00029297 15.00029297V729.89970703c0.60029297 4.5 10.50029297 14.4 15.00029297 15.00029297h361.19970703v-194.10029297c0-15.89941406 20.7-36.59941406 36.60029297-36.59941406h194.09941406v-63.30058594h73.20058594V555L637.70029297 814.49970703l-3.6 3.30029297H206.9c-34.49970703 0-62.39970703-27.9-62.39970703-62.1v-738.29970703c0-34.2 27.9-62.1 62.39970703-62.1h194.10029297v72.59941406zM666.8 703.5l116.70029297-116.70029297H666.8V703.5z"  horiz-adv-x="1024" />

    
    <glyph glyph-name="tijiao" unicode="&#58983;" d="M764.69333333 167.78666667000005l74.98666667-70.82666667c11.73333333-11.09333333 30.82666667-11.09333333 42.66666667 0 11.73333333 11.09333333 11.73333333 29.22666667 0 40.32l-149.33333334 141.01333333-149.22666666-141.01333333c-11.73333333-11.09333333-11.73333333-29.22666667 0-40.32 11.73333333-11.09333333 30.82666667-11.09333333 42.66666666 0l74.98666667 70.82666667v-194.88c0-17.49333333 14.18666667-31.57333333 31.57333333-31.57333334s31.57333333 14.18666667 31.57333334 31.57333334V167.78666667000005zM480.10666667 4.58666667c17.49333333 0 31.57333333-14.18666667 31.57333333-31.57333334 0-17.49333333-14.18666667-31.57333333-31.57333333-31.57333333H290.34666667C203.09333333-58.66666667000004 132.26666667 12.159999999999968 132.26666667 99.41333333V668.58666667C132.26666667 755.84 203.09333333 826.66666667 290.34666667 826.66666667h442.66666666c87.36 0 158.08-70.82666667 158.08-158.08v-316.16c0-17.49333333-14.18666667-31.57333333-31.57333333-31.57333334s-31.57333333 14.18666667-31.57333333 31.57333334V668.58666667c0 52.37333333-42.45333333 94.82666667-94.82666667 94.82666666h-442.66666667c-52.37333333 0-94.82666667-42.45333333-94.82666666-94.82666666v-569.17333334c0-52.37333333 42.45333333-94.82666667 94.82666666-94.82666666h189.65333334zM353.6 636.90666667h316.16c17.49333333 0 31.57333333-14.18666667 31.57333333-31.57333334s-14.18666667-31.57333333-31.57333333-31.57333333H353.6c-17.49333333 0-31.57333333 14.18666667-31.57333333 31.57333333s14.08 31.57333333 31.57333333 31.57333334z m0-189.65333334h316.16c17.49333333 0 31.57333333-14.18666667 31.57333333-31.57333333 0-17.49333333-14.18666667-31.57333333-31.57333333-31.57333333H353.6c-17.49333333 0-31.57333333 14.18666667-31.57333333 31.57333333s14.08 31.57333333 31.57333333 31.57333333z m0-189.76h126.50666667c17.49333333 0 31.57333333-14.18666667 31.57333333-31.57333333 0-17.49333333-14.18666667-31.57333333-31.57333333-31.57333333H353.6c-17.49333333 0-31.57333333 14.18666667-31.57333333 31.57333333s14.08 31.57333333 31.57333333 31.57333333z"  horiz-adv-x="1024" />

    
    <glyph glyph-name="chehui" unicode="&#58882;" d="M430.71875 203.4375H858.875c21.46875 0 38.625-15.75 38.625-35.71875V25.875c0-19.78125-17.15625-35.71875-38.625-35.71875H629.375c-21.46875 0-38.71875-15.9375-38.71875-35.71875 0-19.6875 17.34375-35.71875 38.71875-35.71875h229.40625c64.3125 0 116.0625 48 116.0625 107.25V167.625c0 59.4375-51.9375 107.25-116.15625 107.25H432.59375l97.59375 90.09375c7.125 6.375 11.15625 15.5625 11.0625 25.125-0.09375 9.5625-4.3125 18.65625-11.625 24.84375-15.375 13.78125-38.625 13.96875-54.28125 0.46875L314 266.4375c-3.375-2.53125-6.28125-5.53125-8.625-8.90625-10.03125-14.0625-7.78125-33.375 5.25-44.71875 1.21875-1.125 2.4375-2.15625 3.75-3.09375L475.4375 61.125c15.5625-13.875 39.09375-13.59375 54.28125 0.46875 7.125 6.375 11.15625 15.375 11.25 24.9375 0.09375 9.5625-3.84375 18.65625-10.875 25.125l-99.375 91.78125z m468.65625 537.09375c-0.28125 20.4375-19.6875 36.75-44.8125 35.71875H171.40625c-27.1875 1.03125-46.5-15.1875-46.5-35.71875v-714.75c0.28125-18.5625 20.71875-35.71875 46.5-35.71875h222.28125c21.46875 0 38.71875-15.9375 38.71875-35.71875 0-19.6875-17.34375-35.625-38.71875-35.625H171.40625c-66.65625 0-122.90625 47.0625-123.84375 106.6875V740.4375c0 62.0625 56.8125 109.78125 125.53125 107.25h679.6875c66.65625 2.53125 123.1875-45 123.9375-106.875v-284.34375c0-19.6875-17.34375-35.71875-38.71875-35.71875-21.375 0-38.625 16.03125-38.625 35.71875v284.0625z"  horiz-adv-x="1024" />

    
    <glyph glyph-name="Updated" unicode="&#58893;" d="M908 355.99999969c-19.99999969 1.99999969-37.99999969-13.99999969-42-33.99999938-12-72-48-139.99999969-100.00000031-194.00000062C698 61.99999968999998 608 24 512 24s-186 37.99999969-253.99999969 106.00000031c-12 12-24 25.99999969-34.00000031 39.99999938h70.00000031c22.00000031 0 40.00000031 18 39.99999938 40.00000031s-18 40.00000031-39.99999938 40.00000031h-160.00000031c-22.00000031 0-40.00000031-18-40.00000031-40.00000031v-160.00000031c0-22.00000031 18-40.00000031 40.00000031-39.99999938s40.00000031 18 40.00000031 39.99999938v56.00000062c10.00000031-12 18-22.00000031 30-32.00000062 79.99999969-84 190.00000031-130.00000031 307.99999969-129.99999938s228 46.00000031 312 127.99999969c64.00000031 64.00000031 108 148.00000031 121.99999969 238.00000031 4.00000031 24-13.99999969 43.99999969-37.99999969 45.99999938zM114.00000031 415.99999969c19.99999969-1.99999969 37.99999969 12 42 34.00000031 13.99999969 72 48 138 99.99999938 190.00000031C324.00000031 706.00000031 416 744 512 744s186-37.99999969 253.99999969-106.00000031c12-12 24-25.99999969 34.00000031-37.99999969v-1.99999969h-58.00000031c-22.00000031 0-40.00000031-18-39.99999938-40.00000031s18-40.00000031 39.99999938-40.00000031h160.00000031c22.00000031 0 40.00000031 18 40.00000031 40.00000031v160.00000031c0 22.00000031-18 40.00000031-40.00000031 39.99999938s-40.00000031-18-40.00000031-39.99999938v-70.00000031c-12 16.00000031-25.99999969 31.99999969-39.99999938 46.00000031C740 778.00000031 630.00000031 823.99999969 512 823.99999969S284 778.00000031 200 696c-64.00000031-64.00000031-106.00000031-145.99999969-121.99999969-234-4.00000031-22.00000031 13.99999969-43.99999969 36-46.00000031z"  horiz-adv-x="1024" />

    
    <glyph glyph-name="zidingyi" unicode="&#58940;" d="M589.67229667 413.12711111c0-24.27259221 19.41807445-43.69066667 43.69066667-43.69066666h320.39822223c24.27259221 0 43.69066667 19.41807445 43.69066666 43.69066666s-19.41807445 38.83614777-43.69066666 38.83614777h-320.39822223c-24.27259221 4.8545189-43.69066667-14.56355555-43.69066667-38.83614777zM953.76118557 272.34607444999995h-412.63407446c-24.27259221 0-38.83614777-19.41807445-38.83614777-38.8361489s19.41807445-43.69066667 38.83614777-43.69066667h412.63407446c24.27259221 0 43.69066667 19.41807445 43.69066666 43.69066667s-19.41807445 38.83614777-43.69066666 38.8361489zM953.76118557 87.87436998999999H444.03674112c-24.27259221 0-43.69066667-19.41807445-43.69066667-43.69066666s19.41807445-38.83614777 43.69066667-38.83614778H948.90666667c24.27259221 0 43.69066667 19.41807445 43.69066666 38.83614778s-14.56355555 43.69066667-38.83614776 43.69066666zM681.90814777 762.65244445c-4.8545189 19.41807445-19.41807445 38.83614777-38.83614777 53.39970332l-77.67229667 48.54518556c-24.27259221 4.8545189-43.69066667 9.70903666-67.96325888 4.8545189-24.27259221-4.8545189-38.83614777-19.41807445-53.39970333-38.8361489L70.23881443 209.23733332999996c-4.8545189-4.8545189-4.8545189-9.70903666-4.85451776-14.56355555l-29.1271111-233.01688889c0-14.56355555 4.8545189-33.98163001 19.41807331-38.83614777 4.8545189-4.8545189 14.56355555-4.8545189 19.41807445-4.8545189 9.70903666 0 19.41807445 4.8545189 24.27259222 9.70903666l189.32622222 135.9265189 9.7090378 9.70903665 373.79792554 626.2328889c14.56355555 14.56355555 14.56355555 38.83614777 9.70903666 63.10874112zM235.29244445 121.856L128.49303666 44.18370332999996l14.56355555 126.21748224 300.98014891 509.72444444L531.41807445 626.72592555 235.29244445 121.856z m344.67081443 577.68770333l-87.38133333 53.39970446 24.27259335 38.83614776h4.85451776l77.67229667-48.54518556s4.8545189 0 4.8545189-4.85451776l-24.27259335-38.8361489z"  horiz-adv-x="1024" />

    
    <glyph glyph-name="shengcheng" unicode="&#58884;" d="M780.47914667 872.89856H117.69173333C74.21952 872.89856 38.83008 837.50912 38.83008 794.03690667v-761.52832c0-43.25376 35.38944-78.86165333 78.86165333-78.86165334H505.4464c18.13162667 0 32.768 14.63637333 32.768 32.768s-14.63637333 32.768-32.768 32.768H117.69173333c-7.20896 0-13.1072 5.89824-13.1072 13.1072V794.03690667c0 7.20896 5.89824 13.1072 13.1072 13.1072h662.78741334c7.20896 0 13.1072-5.89824 13.1072-13.1072v-388.84693334c0-18.13162667 14.63637333-32.768 32.768-32.768s32.768 14.63637333 32.768 32.768v388.84693334c0.21845333 43.47221333-35.17098667 78.86165333-78.6432 78.86165333zM768.46421333 269.53045333c86.94442667 0 157.72330667-70.77888 157.72330667-157.72330666s-70.77888-157.72330667-157.72330667-157.72330667-157.72330667 70.77888-157.72330666 157.72330667 70.77888 157.72330667 157.72330666 157.72330666m0 58.9824c-119.71242667 0-216.70570667-96.99328-216.70570666-216.70570666s96.99328-216.70570667 216.70570666-216.70570667 216.70570667 96.99328 216.70570667 216.70570667c0 119.71242667-96.99328 216.70570667-216.70570667 216.70570666zM188.47061333 316.93482667c0-19.00544 15.51018667-34.51562667 34.51562667-34.51562667h288.13994667c19.00544 0 34.51562667 15.51018667 34.51562666 34.51562667 0 19.00544-15.51018667 34.51562667-34.51562666 34.51562666H222.98624c-19.00544 0-34.51562667-15.51018667-34.51562667-34.51562666zM188.47061333 480.99328c0-19.00544 15.51018667-34.51562667 34.51562667-34.51562667h370.2784c19.00544 0 34.51562667 15.51018667 34.51562667 34.51562667 0 19.00544-15.51018667 34.51562667-34.51562667 34.51562667H222.98624c-19.00544 0-34.51562667-15.51018667-34.51562667-34.51562667zM188.47061333 645.0517333299999c0-19.00544 15.51018667-34.51562667 34.51562667-34.51562666h452.1984c19.00544 0 34.51562667 15.51018667 34.51562667 34.51562666 0 19.00544-15.51018667 34.51562667-34.51562667 34.51562667h-452.1984c-19.00544 0-34.51562667-15.51018667-34.51562667-34.51562667zM877.90933333 113.33632c0.43690667 6.33514667-1.52917333 12.01493333-5.67978666 16.16554667l-78.20629334 79.29856c-3.93216 3.93216-9.39349333 5.89824-15.29173333 5.89824-7.86432 0-16.16554667-3.71370667-22.71914667-10.04885334-11.79648-11.79648-13.76256-28.39893333-4.58752-37.79242666l24.90368-25.12213334-88.03669333 0.65536c-16.384 0-29.70965333-13.32565333-29.92810667-29.70965333 0-7.86432 3.05834667-15.51018667 8.51968-21.18997333 5.67978667-5.67978667 13.1072-8.73813333 20.97152-8.95658667l87.81824-0.65536-25.34058666-24.90368c-9.39349333-9.39349333-7.64586667-25.99594667 4.15061333-38.01088 6.5536-6.5536 14.85482667-10.26730667 22.9376-10.26730667 5.89824 0 11.14112 1.96608 15.07328 5.89824l76.24021333 75.3664 1.09226667 1.09226667 1.74762667 1.74762667c3.93216 3.93216 6.11669333 9.61194667 5.67978666 16.16554666 0.21845333 0.65536 0.21845333 1.31072 0.21845334 2.18453334 0.65536 0.87381333 0.65536 1.52917333 0.43690666 2.18453333z"  horiz-adv-x="1024" />

    
    <glyph glyph-name="daochu" unicode="&#58908;" d="M646.79400658 754.78857422h202.24291993c9.31915307 0 17.25897193-3.29754663 23.82934547-9.9865725 6.6049807-6.49127173 9.90252662-14.42120385 9.90252661-23.79473829V518.81872559c0-9.37353516-3.29754663-17.30346656-9.89758253-23.89855981-6.57531762-6.59014916-14.51513648-9.88769508-23.83428955-9.88769508-9.31420898 0-17.25402856 3.29754663-23.82934618 9.88769508-6.60992408 6.59509253-9.89263916 14.52502465-9.89263916 23.8985598V639.63647461L535.62170386 360.00256347000004c-6.47644019-6.49127173-14.37670922-9.78881836-23.70080566-9.78881836-9.66027856 0-17.6841433 3.1986692-24.10125733 9.58117677-6.41711402 6.49127173-9.60095239 14.52502465-9.60095166 24.10125732 0 9.37353516 3.22833228 17.20458984 9.7245481 23.794739l279.69818138 279.63391114h-120.87707519c-9.31420898 0-17.23425293 3.29754663-23.84912109 9.88769507-6.56048608 6.59509253-9.87780761 14.52502465-9.87780762 23.79473901 0 9.37353516 3.31732154 17.30346656 9.87780762 23.89361572 6.61486816 6.59014916 14.53491211 9.88769508 23.844177 9.88769508h0.03460717z m-404.50561546 0h235.95501708c9.3092649 0 17.22930884-3.29754663 23.84417701-9.9865725 6.57037354-6.49127173 9.87780761-14.42120385 9.87780761-23.79473829 0-9.26971435-3.31237817-17.20458984-9.87780761-23.79473902-6.61486816-6.59014916-14.53491211-9.88769508-23.84417701-9.88769507H242.28839112c-9.30432153 0-17.25402856-3.29260253-23.81451393-9.88769579-6.62475562-6.59014916-9.89758325-14.52008057-9.89758324-23.89361572v-539.29467726c0-9.26971435 3.27282691-17.19964576 9.89758324-23.78979492 6.56048608-6.59014916 14.51019311-9.88769508 23.81451393-9.88769579h539.32434105c9.3092649 0 17.22930884 3.29754663 23.844177 9.88769579 6.57037354 6.59014916 9.87780761 14.52502465 9.87780763 23.79473829V350.21374512c0 9.26971435 3.31237817 17.19964576 9.87780761 23.78979492 6.60992408 6.59509253 14.53985619 9.88769508 23.85406519 9.88769507 9.3092649 0 17.22930884-3.29260253 23.844177-9.88769507 6.56048608-6.59014916 9.87780761-14.52008057 9.87780762-23.78979492v-235.96984864c0-27.90801978-9.87780761-51.70275879-29.62353539-71.47814965-19.75561523-19.77539086-43.59979224-29.55926513-71.48803711-29.55926513H242.33288574c-27.92285133 0-51.72747779 9.78881836-71.4929812 29.56420922-19.75561523 19.77539086-29.63342286 43.56518578-29.63342284 71.47814965V653.5385744499999c0 27.91296386 9.87780761 51.70275879 29.63342284 71.47814894 19.76550269 19.77539086 43.57012915 29.66308594 71.4929812 29.66308594L242.28839112 754.78857422z"  horiz-adv-x="1024" />

    
    <glyph glyph-name="tianjiawenjian" unicode="&#58939;" d="M780.94400029 571.49999971L624.50600029 727.87800029V571.49999971h156.438zM549.50000029 496.50000001V759.00000029H249.49999971c-10.54199971 0-19.42800029-3.62400029-26.65199971-10.87800029C215.60000029 740.87999971 212.01800029 732.00000029 212.01800029 721.50000001v-675c0-10.50000029 3.582-19.50000029 10.82399942-26.6280003 7.22400029-7.24799971 16.11-10.872 26.65200058-10.872h524.99999971c10.57799971 0 19.44 3.62400029 26.66400029 10.87800029 7.2 7.12199971 10.84200029 16.12199971 10.84199942 26.62200001v450H549.50000029z m-37.50000029-74.99999972c10.35 0 19.18800001-3.75000029 26.53800028-10.998 7.30199971-7.38000001 10.98600029-16.254 10.98599943-26.50200029v-74.99999971h75.00000058c10.35600029 0 19.19999971-3.75000029 26.50799971-10.998 7.37399971-7.38000001 11.04000029-16.254 11.04000029-26.62800029 0-10.24800029-3.66599971-19.12200029-11.04000029-26.496-7.30199971-7.254-16.1520003-11.00400029-26.50200029-11.00400029h-74.99999971v-74.99999971c0-10.37400029-3.69-19.12200029-10.99199972-26.496-7.35000029-7.38000001-16.18800029-11.00400029-26.53800028-11.00400029s-19.1639997 3.62400029-26.52599971 11.00400029c-7.31400029 7.37399971-10.98600029 16.12199971-10.98600029 26.496v74.99999971h-74.99999971c-10.368 0-19.19999971 3.75000029-26.50800058 11.00400029-7.362 7.37399971-11.00999971 16.24799971-11.00999971 26.496 0 10.37999971 3.64799971 19.25399971 11.00999971 26.62800029 7.30199971 7.24799971 16.13999971 10.998 26.50200029 10.998h74.99999971V384c0 10.24800029 3.67800029 19.12799971 10.99200058 26.50200029 7.362 7.24799971 16.17599971 10.998 26.52599971 10.998zM249.51799971 834H624.50000001L887.00000029 571.49999971v-524.9999997c0-31.00200029-10.98600029-57.6240003-32.95200058-79.49999973-21.97199971-22.00200029-48.48599971-33.00000029-79.55399971-33.00000028h-524.99999971c-31.02599971 0-57.55200029 10.998-79.5300003 33.00000028C147.97999971-11.124000290000026 136.99999971 15.497999710000045 136.99999971 46.49999998999999V721.50000001C136.99999971 752.5020002900001 147.986 778.9980002899999 169.96399999 800.9999997S218.46799971 834 249.49400029 834h0.02399942z"  horiz-adv-x="1024" />

    
    <glyph glyph-name="jisuan1" unicode="&#58947;" d="M816.128-73.15911111000003H214.58488889c-84.42311111 0-153.25866667 68.72177778-153.25866667 153.25866666V380.81422222000003c0 15.13244445 12.288 27.30666667 27.30666667 27.30666667 15.13244445 0 27.30666667-12.288 27.30666666-27.30666667v-300.71466667c0-54.38577778 44.14577778-98.53155555 98.53155556-98.53155555h601.54311111c54.38577778 0 98.53155555 44.14577778 98.53155556 98.53155555V681.52888889c0 54.38577778-44.14577778 98.53155555-98.53155556 98.53155556H214.58488889c-54.38577778 0-98.53155555-44.14577778-98.53155556-98.53155556v-134.59911111c0-15.13244445-12.288-27.30666667-27.30666666-27.30666667-15.13244445 0-27.30666667 12.288-27.30666667 27.30666667V681.52888889c0 84.42311111 68.72177778 153.25866667 153.25866667 153.25866666h601.54311111c84.42311111 0 153.25866667-68.72177778 153.25866667-153.25866666v-601.54311111c-0.11377778-84.42311111-68.94933333-153.14488889-153.37244445-153.14488889z m0 0M437.58933333 535.32444445H247.01155555c-15.13244445 0-27.30666667 12.288-27.30666666 27.30666666 0 15.13244445 12.288 27.30666667 27.30666666 27.30666667h190.57777778c15.13244445 0 27.30666667-12.288 27.30666667-27.30666667 0-15.13244445-12.288-27.30666667-27.30666667-27.30666666z m350.54933334 0H597.56088889c-15.13244445 0-27.30666667 12.288-27.30666667 27.30666666 0 15.13244445 12.288 27.30666667 27.30666667 27.30666667h190.57777778c15.13244445 0 27.30666667-12.288 27.30666666-27.30666667 0-15.13244445-12.17422222-27.30666667-27.30666666-27.30666666z m0-283.1928889H597.56088889c-15.13244445 0-27.30666667 12.288-27.30666667 27.30666667s12.288 27.30666667 27.30666667 27.30666667h190.57777778c15.13244445 0 27.30666667-12.288 27.30666666-27.30666667s-12.17422222-27.30666667-27.30666666-27.30666667z m0-121.2871111H597.56088889c-15.13244445 0-27.30666667 12.288-27.30666667 27.30666666 0 15.13244445 12.288 27.30666667 27.30666667 27.30666667h190.57777778c15.13244445 0 27.30666667-12.288 27.30666666-27.30666667s-12.17422222-27.30666667-27.30666666-27.30666666z m0 0M342.24355555 439.97866667c-15.13244445 0-27.30666667 12.288-27.30666666 27.30666666V657.86311111c0 15.13244445 12.288 27.30666667 27.30666666 27.30666667 15.13244445 0 27.30666667-12.288 27.30666667-27.30666667v-190.57777778c0.11377778-15.01866667-12.17422222-27.30666667-27.30666667-27.30666666z m67.35644445-309.47555556c-6.94044445 0-13.99466667 2.61688889-19.34222222 7.96444444L255.54488889 273.18044445c-10.69511111 10.69511111-10.69511111 27.98933333 0 38.68444444 10.69511111 10.69511111 27.98933333 10.69511111 38.68444444 0L428.94222222 177.15200000000004c10.69511111-10.69511111 10.69511111-27.98933333 0-38.68444445-5.23377778-5.34755555-12.288-7.96444445-19.34222222-7.96444444z m0 0M274.88711111 130.50311110999996c-7.05422222 0-13.99466667 2.61688889-19.34222222 7.96444444-10.69511111 10.69511111-10.69511111 27.98933333 0 38.68444445L390.25777778 311.97866667000005c10.69511111 10.69511111 27.98933333 10.69511111 38.68444444 0 10.69511111-10.69511111 10.69511111-27.98933333 0-38.68444445L294.22933333 138.46755555000004c-5.34755555-5.34755555-12.288-7.96444445-19.34222222-7.96444444z m0 0"  horiz-adv-x="1024" />

    
    <glyph glyph-name="zuofei" unicode="&#58928;" d="M441.02026667 4.533333330000005H277.48906667c-11.952 0-144.4224-5.8176-144.4224 5.1504V310.14933333 728.39253333c0 10.6656-7.6128 58.5408 8.5728 58.5408h624.5376c9.1152 0 16.4304 1.512 16.4304-9.8448v-275.7024c0-30.9552 48-30.9552 48 0V670.29333333 765.56373333c0 30.6912-7.3344 57.5952-40.6176 67.9296-10.5264 3.2688-24.816 1.44-35.6256 1.44H138.05866667c-55.944 0-52.992-55.4448-52.992-94.2768V11.81493333000003c0-65.4816 72.1392-55.2816 116.28-55.2816h239.6736c30.9552 0 30.9552 48 0 48zM915.71146667 179.72853333c-1.6176-101.9952-82.8048-183.1824-184.8-184.8-102.0048-1.6176-183.2208 85.2432-184.8 184.8-1.6176 102.0048 85.248 183.2112 184.8 184.7904 102 1.6224 183.2208-85.2336 184.8-184.7904 0.4944-30.9216 48.4944-30.9696 48 0-1.7472 110.1456-78.312 205.5408-186.7392 228.1488-107.5968 22.4544-219.1536-38.016-260.9616-139.032-42.8688-103.5648-4.2432-220.4688 86.7024-283.4208 91.392-63.264 218.2368-44.8608 295.0224 31.9248 42.8256 42.8256 65.0304 102.4224 65.9808 162.3744 0.4848 30.9744-47.5152 30.9264-48.0048 0.0048zM630.75946667 245.93973332999997l166.368-166.368c21.9024-21.9072 55.848 12.0336 33.936 33.936a2718266.904 2718266.904 0 0 1-166.368 166.368c-21.9072 21.912-55.848-12.0336-33.936-33.936zM797.12746667 279.87573333a2718266.904 2718266.904 0 0 1-166.368-166.368c-21.9072-21.9024 12.0336-55.848 33.936-33.936l166.368 166.368c21.9072 21.9024-12.0336 55.848-33.936 33.936zM223.46986667 593.31093333h479.208c30.9504 0 30.9504 48 0 48H223.46986667c-30.9504 0-30.9504-48 0-48zM223.46986667 382.10613333000003H490.66666667c30.9504 0 30.9504 48.0048 0 48.0048H223.46986667c-30.9504 0-30.9504-48.0048 0-48.0048zM223.46986667 185.83893333000003h158.352c30.9552 0 30.9552 48 0 48h-158.352c-30.9504 0-30.9504-48 0-48z"  horiz-adv-x="1024" />

    
    <glyph glyph-name="renzheng" unicode="&#58933;" d="M899.51 699.668l-38.365 0.597c-0.92 0-86.925 1.79-175.753 36.302-91.103 35.434-149.817 76.13-150.36 76.51L511.92 829.138l-23.064-16.06c-0.542-0.38-59.307-41.077-150.36-76.511-88.773-34.564-174.832-36.3-175.59-36.3l-38.58-0.599v-374.245c0-187.908 252.099-386.562 387.645-386.562 135.6 0 387.702 198.654 387.702 386.562l-0.164 374.245zM511.971-5.575c-112.593 0-332.082 178.687-332.082 331.001V645.462c31.744 2.17 103.694 10.092 178.737 39.286 76.89 29.953 132.78 63.811 153.4 77.052 22.137-14.381 76.4-47.1 153.235-77.052C740.576 655.5 812.69 647.63 844 645.462l0.107-320.036c0.001-152.314-219.542-331-332.134-331zM743.236 347.608L594.613 199.147l-62.289 70.649c-10.202 11.504-27.73 12.59-39.232 2.495-11.557-10.2-12.642-27.728-2.442-39.232l81.827-92.842a27.708 27.708 0 0 1 19.967-9.333c0.326-0.054 0.597-0.054 0.871-0.054 7.375 0 14.433 2.876 19.64 8.083l169.57 169.299c10.852 10.85 10.852 28.432 0.055 39.338-10.858 10.86-28.49 10.8-39.344 0.058zM591.246 297.21c12.59 12.967 28 26.534 40.968 37.276-18.61 19.806-41.24 35.706-66.471 46.718 30.388 23.441 50.3 59.906 50.3 101.147 0 70.81-57.625 128.438-128.437 128.438-70.81 0-128.438-57.625-128.438-128.438 0-41.132 19.805-77.434 50.03-100.93-70.81-30.495-120.57-100.924-120.57-182.807 0-15.357 12.427-27.783 27.783-27.783 15.355 0 27.78 12.427 27.78 27.783 0 79.06 64.3 143.412 143.414 143.412 40.807 0.001 77.489-17.306 103.641-44.816zM487.608 555.224c40.152 0 72.875-32.72 72.875-72.873 0-40.154-32.725-72.82-72.875-72.82-40.153 0-72.874 32.666-72.874 72.82 0 40.153 32.721 72.873 72.874 72.873z"  horiz-adv-x="1024" />

    
    <glyph glyph-name="quxiao" unicode="&#58988;" d="M846.656 889.536H177.408A167.488 167.488 0 0 1 10.048 721.984v-670.08a167.616 167.616 0 0 1 167.36-167.616h201.728a41.856 41.856 0 0 1 41.6 41.6 41.856 41.856 0 0 1-41.536 41.6H177.408a83.648 83.648 0 0 0-83.712 83.648V721.344A83.84 83.84 0 0 0 177.408 805.12h669.248c46.208 0 83.712-37.504 83.712-83.776V468.48c0.64-22.656 19.52-40.512 42.112-39.936a41.664 41.664 0 0 1 41.472 41.6V721.984A167.488 167.488 0 0 1 846.656 889.536zM262.656 626.496h400.064c19.456 0 35.392 16.896 35.392 37.568 0 20.736-15.936 37.632-35.392 37.632H262.656c-19.456 0-35.264-16.896-35.264-37.632 0-20.672 15.808-37.568 35.264-37.568zM558.208 534.72H262.656c-19.456 0-35.264-16.896-35.264-37.632 0-20.672 15.808-37.568 35.264-37.568h295.488c19.456 0 35.328 16.896 35.328 37.568 0 20.736-15.872 37.632-35.264 37.632zM453.568 367.744H262.656c-19.456 0-35.264-16.896-35.264-37.632 0-20.608 15.808-37.632 35.264-37.632h190.912c19.392 0 35.328 17.024 35.328 37.632 0.064 20.672-15.872 37.632-35.328 37.632zM991.104 259.712c-14.656 14.72-37.76 15.488-51.584 1.728l-133.312-133.376-133.376 133.376c-13.76 13.632-36.928 12.992-51.584-1.728-14.656-14.656-15.296-37.76-1.6-51.52l133.312-133.376-133.248-133.248c-13.76-13.76-13.056-36.992 1.536-51.648s37.888-15.36 51.584-1.6l133.312 133.376 133.376-133.376c13.824-13.76 36.864-12.992 51.584 1.6s15.424 37.76 1.536 51.648l-133.248 133.248 133.376 133.376c13.888 13.888 13.056 36.864-1.664 51.52z"  horiz-adv-x="1024" />

    
    <glyph glyph-name="fanhui" unicode="&#58979;" d="M657.06666667 581.12H197.97333333l136.53333334 136.53333334c13.65333333 13.65333333 13.65333333 34.13333333 0 47.78666666-13.65333333 13.65333333-34.13333333 13.65333333-47.78666667 0L92.16 572.58666667c-6.82666667-6.82666667-10.24-15.36-10.24-23.89333333s3.41333333-17.06666667 10.24-23.89333334l192.85333333-192.85333333c13.65333333-13.65333333 34.13333333-13.65333333 47.78666667 0 13.65333333 13.65333333 13.65333333 34.13333333 0 47.78666667L199.68 512.8533333400001H657.06666667c128 0 230.4-102.4 230.4-230.4s-102.4-230.4-230.4-230.4H307.2c-18.77333333 0-34.13333333-15.36-34.13333333-34.13333334s15.36-34.13333333 34.13333333-34.13333333h349.86666667c165.54666667 0 298.66666667 133.12 298.66666666 298.66666667s-133.12 298.66666667-298.66666666 298.66666666z"  horiz-adv-x="1024" />

    
    <glyph glyph-name="tuoguan" unicode="&#60558;" d="M836.39 258.72c-28.59-23.43-64.23-40.26-109.8-54.51-13.17-4.11-26.76-7.92-43.38-12.24-6.15-1.59-32.49-8.25-39.03-9.96a30 30 0 0 0-15.21 58.05c6.87 1.8 33.3 8.46 39.18 9.99a841.5 841.5 0 0 1 40.56 11.43c38.85 12.15 68.04 25.92 89.7 43.65 78.9 64.65 150.21 52.05 190.83-36.18l7.95-17.28-12.21-14.55C849.77 75.96000000000004 733.37-6 632-6l-513.99-14.25a30 30 0 0 0 0 60L632 54c75.9 0 175.05 67.98 294.06 206.4-21.3 34.98-46.02 34.05-89.67-1.68zM119.3 123.17999999999995a30 30 0 1 0-60 1.02L62.21 294l7.89 8.4c79.83 85.26 158.85 123.66 236.64 111.21 58.8-9.39 92.04-27.72 138.21-67.11l6.51-5.58c19.98-17.07 30.69-25.11 44.64-32.52 10.56-5.64 24.39-9 43.02-10.8 8.46-0.87 14.82-1.2 31.44-1.89 68.7-2.91 96-12.24 96-61.71 0-67.5-44.4-110.34-124.05-123.78-52.44-8.85-128.46 11.55-231.15 59.64a30 30 0 1 0 25.47 54.33c92.4-43.29 158.67-61.05 195.69-54.81 51.84 8.76 73.14 28.44 74.01 62.4-6.42 2.1-16.11 3-38.49 3.96a564.9 564.9 0 0 0-34.74 2.1c-25.77 2.52-46.74 7.65-65.4 17.61-18.84 10.02-32.34 20.13-55.41 39.87l-6.48 5.52c-38.52 32.88-62.61 46.17-108.75 53.55-52.71 8.4-111.06-18.6-175.47-84.72l-2.49-146.49zM242 517.38a30 30 0 1 0-60 0V654a60 60 0 0 0 60 60h570a60 60 0 0 0 60-60v-180a60 60 0 0 0-60-60H490.85a30 30 0 1 0 0 60H812V654H242v-136.62z"  horiz-adv-x="1029" />

    
    <glyph glyph-name="lingqu" unicode="&#58888;" d="M290.3 252.5c-8.1 7.4-8.8 20.1-1.4 28.2l10.1 11.1c7.4 8.1 20.1 8.8 28.3 1.4l111-100.9c8.1-7.4 20.9-6.8 28.2 1.4l229.8 253.4c7.4 8.1 20.1 8.8 28.2 1.4l11.1-10.1c8.1-7.4 8.8-20.1 1.4-28.3l-266.8-294c-7.4-8.1-20.1-8.8-28.2-1.4L290.3 252.5zM118 695.1c-11 0-20-9-20-20v-687.3c0-11 9-20 20-20h790c11 0 20 9 20 20V675.1c0 11-9 20-20 20H118z m755-652.3c0-11-9-20-20-20H173c-11 0-20 9-20 20V620.1c0 11 9 20 20 20h680c11 0 20-9 20-20v-577.3zM720.5 560.6c0-11-9-20-20-20h-15c-11 0-20 9-20 20v217c0 11 9 20 20 20h15c11 0 20-9 20-20v-217zM360.5 560.6c0-11-9-20-20-20h-15c-11 0-20 9-20 20v217c0 11 9 20 20 20h15c11 0 20-9 20-20v-217z"  horiz-adv-x="1024" />

    
    <glyph glyph-name="hebing" unicode="&#59077;" d="M867.4-64.20000000000005H434.5c-51.2 0-92.8 41.6-92.8 92.8V461.5c0 51.2 41.6 92.8 92.8 92.8h432.9c51.2 0 92.8-41.6 92.8-92.8v-432.9c0-51.2-41.6-92.8-92.8-92.8zM434.5 492.4c-17 0-30.9-13.9-30.9-30.9v-432.9c0-17 13.9-30.9 30.9-30.9h432.9c17 0 30.9 13.9 30.9 30.9V461.5c0 17-13.9 30.9-30.9 30.9H434.5zM584 211.5H468c-17.1 0-30.9 13.8-30.9 30.9 0 17.1 13.8 30.9 30.9 30.9h116c21.3 0 38.7 17.3 38.7 38.7V428c0 17.1 13.8 30.9 30.9 30.9 17.1 0 30.9-13.8 30.9-30.9v-116c0-55.4-45.1-100.5-100.5-100.5z m-301.5 0h-116C111.1 211.5 66 256.6 66 312V729.5C66 784.9 111.1 830 166.5 830H584c55.4 0 100.5-45.1 100.5-100.5v-116c0-17.1-13.8-30.9-30.9-30.9-17.1 0-30.9 13.8-30.9 30.9v116c0 21.3-17.3 38.7-38.7 38.7H166.5c-21.3 0-38.7-17.3-38.7-38.7V312c0-21.3 17.3-38.7 38.7-38.7h116c17.1 0 30.9-13.8 30.9-30.9 0-17.1-13.8-30.9-30.9-30.9z"  horiz-adv-x="1024" />

    
    <glyph glyph-name="yidu" unicode="&#58999;" d="M732.002822 819.408901h-544.907292c-60.236582 0-108.983891-48.747309-108.983891-108.983891v-653.885101c0-60.231717 48.747309-108.983891 108.983891-108.983891h272.205519v81.734877H214.338462c-30.06599 0-54.491946 24.42474-54.491945 54.491946V683.182078c0 30.06599 24.425956 54.491946 54.491945 54.491946h490.41413c30.073287 0 54.494378-24.425956 54.494379-54.491946v-301.046683h81.732444V710.42501c0 60.236582-48.747309 108.983891-108.976593 108.983891zM636.639181 628.690133H282.451874c-22.573514 0-40.87048-18.2921-40.87048-40.864398 0-22.57838 18.296965-40.87048 40.87048-40.87048h354.187307c22.579596 0 40.872912 18.2921 40.872912 40.87048 0 22.572298-18.2921 40.864398-40.872912 40.864398zM568.525769 397.106966c0 22.572298-18.2921 40.864398-40.863181 40.864398H282.451874c-22.573514 0-40.87048-18.2921-40.87048-40.864398 0-22.57838 18.296965-40.87048 40.87048-40.870479h245.21193c22.569865 0 40.861965 18.2921 40.861965 40.870479zM704.961798-28.444951c15.961648 15.961648 15.961648 41.831365 0.001216 57.79058L562.534222 171.774422c-15.961648 15.961648-41.835014 15.965297-57.796662 0.003649-15.964081-15.964081-15.961648-41.83623 0-57.799095l142.430008-142.428792c15.959216-15.960432 41.828933-15.960432 57.79423 0.004865zM876.113773 258.297915l-228.946205-228.946204c-15.962865-15.962865-15.965297-41.835014-0.003649-57.796662 15.964081-15.965297 41.83623-15.961648 57.799095 0.001216l228.946205 228.946204c15.966513 15.966513 15.966513 41.83623 0.002432 57.800312-15.961648 15.961648-40.971433 16.82158-56.937947 0.855066l-0.859931-0.859932z"  horiz-adv-x="1024" />

    
    <glyph glyph-name="wj-thwj" unicode="&#59223;" d="M667.2 657.06666667c0 18.88-15.25333333 34.13333333-34.02666667 34.13333333H224.53333333c-18.77333333 0-34.02666667-15.25333333-34.02666666-34.13333333s15.25333333-34.13333333 34.02666666-34.13333334h408.64c18.88 0 34.02666667 15.25333333 34.02666667 34.13333334zM667.2 452.26666667c0 18.88-15.25333333 34.13333333-34.02666667 34.13333333H224.53333333c-18.77333333 0-34.02666667-15.25333333-34.02666666-34.13333333s15.25333333-34.13333333 34.02666666-34.13333334h408.64c18.88 0 34.02666667 15.25333333 34.02666667 34.13333334zM224.53333333 281.6c-18.77333333 0-34.02666667-15.25333333-34.02666666-34.13333333s15.25333333-34.13333333 34.02666666-34.13333334h204.37333334c18.77333333 0 34.02666667 15.25333333 34.02666666 34.13333334s-15.25333333 34.13333333-34.02666666 34.13333333H224.53333333zM614.50666667 42.66666667000004H154.34666667c-18.77333333 0-34.02666667 15.25333333-34.02666667 34.13333333V759.46666667c0 18.88 15.25333333 34.13333333 34.02666667 34.13333333H701.86666667c18.77333333 0 34.02666667-15.25333333 34.02666666-34.13333333v-341.33333334c0-18.88 15.25333333-34.13333333 34.02666667-34.13333333 18.77333333 0 34.02666667 15.25333333 34.02666667 34.13333333V793.6c0 37.65333333-30.50666667 68.26666667-68.05333334 68.26666667h-615.46666666C82.77333333 861.86666667 52.26666667 831.25333333 52.26666667 793.6v-750.93333333c0-37.65333333 30.50666667-68.26666667 68.05333333-68.26666667h494.18666667c18.77333333 0 34.02666667 15.25333333 34.02666666 34.13333333s-15.25333333 34.13333333-34.02666666 34.13333334zM852.26666667 247.46666667H697.38666667l24.64 24.64c13.33333333 13.33333333 13.33333333 34.98666667 0 48.32-6.61333333 6.61333333-15.36 10.02666667-24.10666667 10.02666666s-17.49333333-3.30666667-24.10666667-10.02666666L590.93333333 237.54666667000004c-0.42666667-0.42666667-0.85333333-0.85333333-1.17333333-1.28-5.86666667-6.50666667-8.74666667-14.72-8.74666667-22.82666667 0-8.21333333 2.88-16.42666667 8.74666667-22.82666667 0.42666667-0.42666667 0.74666667-0.85333333 1.17333333-1.28l82.88-82.88c13.33333333-13.33333333 34.98666667-13.33333333 48.32 0s13.33333333 34.98666667 0 48.32L697.38666667 179.20000000000005H852.26666667c37.97333333 0 68.8-31.25333333 68.26666666-69.33333333-0.53333333-37.44-31.78666667-67.2-69.33333333-67.2h-32c-18.88 0-34.13333333-15.25333333-34.13333333-34.13333334s15.25333333-34.13333333 34.13333333-34.13333333h31.57333333c75.30666667 0 137.6 60.37333333 138.02666667 135.78666667 0.42666667 75.62666667-61.01333333 137.28-136.53333333 137.28z"  horiz-adv-x="1024" />

    
    <glyph glyph-name="zhuanchu2" unicode="&#59897;" d="M921.6 287.623529L783.058824 426.164706c-12.047059 12.047059-30.117647 12.047059-42.164706 0-18.070588-12.047059-18.070588-30.117647-6.02353-42.164706l84.329412-84.329412H361.411765c-18.070588 0-30.117647-12.047059-30.117647-30.117647 0-24.094118 18.070588-36.141176 30.117647-36.141176h457.788235l-84.329412-84.329412c-12.047059-12.047059-12.047059-30.117647 0-42.164706 12.047059-12.047059 30.117647-12.047059 42.164706 0l138.541177 138.541177c18.070588 6.023529 18.070588 30.117647 6.023529 42.164705M662.588235 829.741176h6.02353l156.611764-156.611764v-6.02353h-120.470588c-24.094118 0-42.164706 18.070588-42.164706 42.164706v120.470588z m222.870589-752.941176c-18.070588 0-30.117647-12.047059-30.117648-30.117647v-90.352941H156.611765V829.741176h439.717647v-120.470588c0-60.235294 48.188235-108.423529 108.423529-108.423529h150.588235v-120.470588c0-18.070588 12.047059-30.117647 30.117648-30.117647s30.117647 12.047059 30.117647 30.117647V673.129412l-30.117647 30.117647L692.705882 896H156.611765c-36.141176 0-60.235294-30.117647-60.235294-66.258824v-879.435294c0-36.141176 30.117647-66.258824 66.258823-66.258823h692.705882c36.141176 0 66.258824 30.117647 66.258824 66.258823v90.352942c-6.023529 18.070588-18.070588 36.141176-36.141176 36.141176z"  horiz-adv-x="1024" />

    
    <glyph glyph-name="wenjianpiliang" unicode="&#58910;" d="M602.56711111 370.80177777999995H239.27466667c-15.70133333 0-28.44444445-12.74311111-28.44444445-28.44444445s12.74311111-28.44444445 28.44444445-28.44444444h363.29244444c15.70133333 0 28.44444445 12.74311111 28.44444444 28.44444444s-12.74311111 28.44444445-28.44444444 28.44444445zM469.90222222 228.69333332999997H239.27466667c-15.70133333 0-28.44444445-12.74311111-28.44444445-28.44444444s12.74311111-28.44444445 28.44444445-28.44444444H469.90222222c15.70133333 0 28.44444445 12.74311111 28.44444445 28.44444444s-12.74311111 28.44444445-28.44444445 28.44444444zM909.19822222 385.59288889l-123.33511111 75.88977778V533.04888889v0.22755556 1.25155555 0.68266667 0.68266666c0 0.34133333-0.11377778 0.56888889-0.11377778 0.91022222 0 0.11377778 0 0.34133333-0.11377778 0.45511112 0 0.34133333-0.11377778 0.56888889-0.11377777 0.91022222 0 0.11377778 0 0.22755555-0.11377778 0.45511111-0.11377778 0.34133333-0.11377778 0.56888889-0.22755555 0.91022222 0 0.11377778-0.11377778 0.22755555-0.11377778 0.45511111-0.11377778 0.34133333-0.11377778 0.56888889-0.22755556 0.91022222 0 0.11377778-0.11377778 0.34133333-0.11377778 0.45511112-0.11377778 0.22755555-0.22755555 0.56888889-0.22755555 0.79644444-0.11377778 0.22755555-0.11377778 0.34133333-0.22755556 0.56888889s-0.22755555 0.45511111-0.22755555 0.68266667c-0.11377778 0.22755555-0.11377778 0.34133333-0.22755556 0.56888888s-0.22755555 0.45511111-0.22755556 0.68266667l-0.34133333 0.68266667c-0.11377778 0.22755555-0.22755555 0.34133333-0.22755555 0.56888889l-0.34133334 0.68266667c-0.11377778 0.11377778-0.11377778 0.34133333-0.22755555 0.4551111-0.11377778 0.22755555-0.22755555 0.45511111-0.45511111 0.79644445-0.11377778 0.11377778-0.22755555 0.22755555-0.22755556 0.45511111-0.11377778 0.22755555-0.34133333 0.45511111-0.45511111 0.79644444-0.11377778 0.11377778-0.22755555 0.22755555-0.22755555 0.45511112-0.11377778 0.22755555-0.34133333 0.45511111-0.5688889 0.68266666-0.11377778 0.11377778-0.22755555 0.34133333-0.34133333 0.45511112-0.11377778 0.22755555-0.34133333 0.45511111-0.45511111 0.68266666-0.11377778 0.22755555-0.34133333 0.34133333-0.45511111 0.56888889-0.11377778 0.11377778-0.22755555 0.34133333-0.45511111 0.45511111l-1.024 1.024-256.22755556 255.65866667-0.11377778 0.11377777c-0.34133333 0.34133333-0.56888889 0.56888889-0.91022222 0.79644445-0.22755555 0.11377778-0.34133333 0.34133333-0.56888888 0.45511111l-0.45511112 0.45511111c-0.22755555 0.22755555-0.45511111 0.34133333-0.68266666 0.56888889-0.11377778 0.11377778-0.22755555 0.22755555-0.45511112 0.34133334-0.22755555 0.22755555-0.45511111 0.34133333-0.79644444 0.56888888-0.11377778 0.11377778-0.22755555 0.22755555-0.34133333 0.22755556-0.22755555 0.22755555-0.56888889 0.34133333-0.79644445 0.45511111-0.11377778 0.11377778-0.22755555 0.11377778-0.34133333 0.22755555-0.22755555 0.11377778-0.56888889 0.34133333-0.79644445 0.45511112-0.11377778 0.11377778-0.34133333 0.11377778-0.4551111 0.22755555-0.22755555 0.11377778-0.45511111 0.22755555-0.79644445 0.34133333-0.22755555 0.11377778-0.34133333 0.22755555-0.56888889 0.22755556l-0.68266666 0.34133334c-0.22755555 0.11377778-0.45511111 0.22755555-0.5688889 0.22755555-0.22755555 0.11377778-0.45511111 0.11377778-0.56888888 0.22755555-0.22755555 0.11377778-0.45511111 0.22755555-0.68266667 0.22755556-0.22755555 0.11377778-0.34133333 0.11377778-0.56888889 0.22755556s-0.56888889 0.22755555-0.79644444 0.22755555c-0.11377778 0-0.34133333 0.11377778-0.45511112 0.11377778-0.34133333 0.11377778-0.56888889 0.11377778-0.91022222 0.22755555-0.11377778 0-0.22755555 0.11377778-0.45511111 0.11377778-0.34133333 0.11377778-0.56888889 0.11377778-0.91022222 0.22755556-0.11377778 0-0.22755555 0-0.45511111 0.11377778-0.34133333 0-0.56888889 0.11377778-0.91022222 0.11377778-0.11377778 0-0.34133333 0-0.45511112 0.11377777-0.34133333 0-0.56888889 0.11377778-0.91022222 0.11377778H181.70311111c-44.37333333 0-80.44088889-36.06755555-80.44088889-80.44088889v-705.76355556c0-44.37333333 36.06755555-80.44088889 80.44088889-80.44088888h523.60533334c39.59466667 0 72.47644445 28.672 79.18933333 66.33244444H894.29333333c15.70133333 0 28.44444445 12.74311111 28.44444445 28.44444444V361.35822222c0 9.89866667-5.12 19.00088889-13.53955556 24.23466667zM529.86311111 720.2133333300001L688.69688889 561.49333333H529.86311111V720.2133333300001z m199.11111111-689.152c0-12.97066667-10.58133333-23.552-23.552-23.552H181.70311111c-12.97066667 0-23.552 10.58133333-23.552 23.552V736.93866667c0 12.97066667 10.58133333 23.552 23.552 23.552h291.27111111V533.04888889c0-15.70133333 12.74311111-28.44444445 28.44444445-28.44444444h227.44177778v-473.54311112zM865.84888889 73.84177778000003h-79.98577778v320.85333333l79.98577778-49.26577778v-271.58755555z"  horiz-adv-x="1024" />

    
    <glyph glyph-name="kuaidiyoujixianxing" unicode="&#58949;" d="M449.0217835 535.875H179.0217835v-489.375a16.875 16.875 0 0 1 16.875-16.875h843.75a16.875 16.875 0 0 1 16.875 16.875V535.875H786.5217835v-195.361875l-84.375 65.8125-84.375-65.8125-84.375 65.8125-84.375-65.8125V535.875z m12.538125 67.5l38.9475 135H326.7624085c-1.72125 0-5.4-2.075625-9.45-7.4925L215.4549085 603.375h246.121875z m312.42375 0h246.121875L917.4717835 731.86125c-3.290625 4.438125-6.969375 6.51375-8.690625 6.51375H735.0530335l38.9475-135z m342.478125-12.470625l1.063125-1.366875c4.978125-6.766875 6.9525-14.428125 6.496875-21.8025V46.5a84.375 84.375 0 0 0-84.375-84.375H195.8967835a84.375 84.375 0 0 0-84.375 84.375V567.735a33.075 33.075 0 0 0 7.56 23.169375L263.8355335 772.0575C279.2592835 792.81375 302.3949085 805.875 326.7624085 805.875h582.01875c24.3675 0 47.52-13.044375 62.1675-32.855625l145.513125-182.115zM695.0086585 87.38812499999995a33.75 33.75 0 1 0 0 67.5H967.5905335a33.75 33.75 0 1 0 0-67.5H695.0086585z m135 118.125a33.75 33.75 0 1 0 0 67.5h136.299375a33.75 33.75 0 1 0 0-67.5h-136.299375z"  horiz-adv-x="1228" />

    
    <glyph glyph-name="daoru" unicode="&#58973;" d="M880.213333 25.600000000000023h-716.8V742.4h318.293334V810.666667H146.346667c-28.16 0-51.2-23.04-51.2-51.2v-750.933334c0-28.16 23.04-51.2 51.2-51.2h750.933333c28.16 0 51.2 23.04 51.2 51.2v346.88h-68.266667V25.600000000000023zM914.346667 132.26666699999998c-18.773333 0-34.133333 15.36-34.133334 34.133333v200.533333c0 18.773333 15.36 34.133333 34.133334 34.133334s34.133333-15.36 34.133333-34.133334v-200.533333c0-18.773333-14.933333-34.133333-34.133333-34.133333zM504.746667 742.4h-89.6c-18.773333 0-34.133333 15.36-34.133334 34.133333s15.36 34.133333 34.133334 34.133334h89.6c18.773333 0 34.133333-15.36 34.133333-34.133334s-14.933333-34.133333-34.133333-34.133333zM688.64 295.253333h-220.16c-19.2 0-34.986667 15.786667-34.986667 34.986667 0 19.2 15.786667 34.986667 34.986667 34.986667h220.16c19.2 0 34.986667-15.786667 34.986667-34.986667 0-19.2-15.36-34.986667-34.986667-34.986667zM433.493333 330.24V550.4c0 19.2 15.786667 34.986667 34.986667 34.986667 19.2 0 34.986667-15.786667 34.986667-34.986667v-220.16c0-19.2-15.786667-34.986667-34.986667-34.986667-19.2 0-34.986667 15.786667-34.986667 34.986667zM444.16 305.493333l-0.426667 0.426667c-13.226667 13.226667-13.226667 34.56 0 47.786667L890.453333 800.853333c13.226667 13.226667 34.56 13.226667 47.786667 0l0.426667-0.426666c13.226667-13.226667 13.226667-34.56 0-47.786667L491.52 305.493333c-13.226667-13.226667-34.56-13.226667-47.36 0z"  horiz-adv-x="1024" />

    
    <glyph glyph-name="xiazai" unicode="&#58906;" d="M334.7675 48.45749999999998a30.9375 30.9375 0 0 0 26.595-31.095c0-18.135-15.525-32.49-33.12-32.49H143.9c-43.425 0-81.7875 36.855-81.7875 79.56V753.675c0 42.615 38.25 80.2125 81.7875 80.2125h653.7375c43.425 0 81.7875-37.485 81.7875-80.2125v-143.7975c-0.765-17.3925-16.29-30.9825-33.1425-30.9825-16.965 0-30.15 11.6325-32.355 26.73V731.94c0 22.5-17.73 39.015-40.455 39.015H164.5325c-21.3975 0-39.015-16.65-39.015-39.015v-645.3225c0-20.9925 17.73-38.25 39.015-38.25h170.235v0.09z m333.855 457.29c161.37 0 293.265-127.1925 293.265-285.435 0-158.265-132.0075-286.2-293.265-286.2-162.8325 0-293.2875 127.935-293.2875 286.2 0 158.355 130.3425 285.435 293.2875 285.435z m0-520.875c132.66 0 241.6275 105.435 241.6275 235.53 0 129.375-109.08 234.9-241.74 234.9-133.4475 0-242.5275-105.525-242.5275-234.9 0.1125-130.095 109.1925-235.53 242.64-235.53zM381.2075 521.7c11.0925 0 19.9575-7.9425 19.9575-18.81s-8.865-19.575-19.9575-19.575H207.1925a19.6875 19.6875 0 0 0-19.935 19.575c0 10.8675 8.865 18.81 19.935 18.81h174.015z m237.9825 59.985c0-10.8675-8.8875-19.575-19.9575-19.575H207.1925a19.6875 19.6875 0 0 0-19.935 19.575 20.25 20.25 0 0 0 19.935 20.2275h392.04a20.25 20.25 0 0 0 19.9575-20.2275z m134.775 78.0525c0-10.8675-8.865-18.81-19.9575-18.81H207.1925c-11.07 0-19.935 7.9425-19.935 18.81s8.865 19.575 19.935 19.575h526.9275a19.8 19.8 0 0 0 19.845-19.575z m-65.07-596.205a20.925 20.925 0 0 0-33.1425 0L570.9725 159c-5.22 5.76-7.425 13.7025-6.66 23.1525a16.8075 16.8075 0 0 0 16.965 15.21h54.5175v88.8075c0 10.8675 7.425 18.1575 18.5175 18.1575h35.37c11.07 0 18.495-7.29 18.495-18.1575v-88.8075h55.305c8.1 0 15.525-6.525 17.7525-15.21 0.765-8.685-2.2275-16.65-8.1-23.1525l-84.24-95.445zM654.5375 339.67499999999995c-11.0925 0-18.5175 7.29-18.5175 18.1575 0 9.45 7.425 18.1575 18.5175 18.1575h35.3475c11.0925 0 18.5175-8.7075 18.5175-18.1575 0-10.8675-7.425-18.1575-18.5175-18.1575h-35.3475z"  horiz-adv-x="1024" />

    
    <glyph glyph-name="icon_calendar" unicode="&#60305;" d="M767.987209 352.001215h-63.996547c-17.672498 0-31.998785-14.326287-31.998784-31.998785s14.326287-31.998785 31.998784-31.998784h63.996547c17.672498 0 31.998785 14.326287 31.998784 31.998784s-14.326287 31.998785-31.998784 31.998785zM256.011768 352.001215c-17.672498 0-31.998785-14.326287-31.998785-31.998785s14.326287-31.998785 31.998785-31.998784h287.985994c17.672498 0 31.998785 14.326287 31.998784 31.998784s-14.326287 31.998785-31.998784 31.998785H256.011768zM767.987209 511.994116H256.011768c-17.672498 0-31.998785-14.326287-31.998785-31.998785s14.326287-31.998785 31.998785-31.998785h511.975441c17.672498 0 31.998785 14.326287 31.998784 31.998785s-14.326287 31.998785-31.998784 31.998785zM863.98254 767.981325h-63.996547c-17.672498 0-31.998785-14.326287-31.998784-31.998785s14.326287-31.998785 31.998784-31.998785h63.996547c17.672498 0 31.998785-14.326287 31.998785-31.998785v-639.969556c0-17.672498-14.326287-31.998785-31.998785-31.998785H160.016437c-17.672498 0-31.998785 14.326287-31.998785 31.998785V671.985993c0 17.672498 14.326287 31.998785 31.998785 31.998785h63.996546c17.672498 0 31.998785 14.326287 31.998785 31.998785s-14.326287 31.998785-31.998785 31.998785h-63.996546c-53.016471 0-95.995331-42.97886-95.995331-95.995331v-639.969557c0-53.016471 42.97886-95.995331 95.995331-95.995331h703.966103c53.016471 0 95.995331 42.97886 95.995331 95.995331V671.985993c0 53.017494-42.977837 95.995331-95.995331 95.995332zM320.009338 639.988232c17.672498 0 31.998785 14.326287 31.998784 31.998785V799.980109c0 17.672498-14.326287 31.998785-31.998784 31.998785s-31.998785-14.326287-31.998785-31.998785v-127.994116c0-17.671475 14.326287-31.997762 31.998785-31.997761zM416.004669 703.984778h191.990662c17.672498 0 31.998785 14.326287 31.998785 31.998785s-14.326287 31.998785-31.998785 31.998785H416.004669c-17.672498 0-31.998785-14.326287-31.998785-31.998785s14.326287-31.998785 31.998785-31.998785zM703.990662 639.988232c17.672498 0 31.998785 14.326287 31.998785 31.998785V799.980109c0 17.672498-14.326287 31.998785-31.998785 31.998785s-31.998785-14.326287-31.998784-31.998785v-127.994116c0-17.671475 14.326287-31.997762 31.998784-31.997761z"  horiz-adv-x="1024" />

    
    <glyph glyph-name="icon_setting" unicode="&#60319;" d="M513.91672107-93.84306240000001c-5.59953173 0-11.23290027 0.08295573-16.832432 0.28379733a486.13648107 486.13648107 0 0 0-35.79879894 2.58364267c-16.2659296 1.78355413-28.96474987 14.81638187-30.2985952 31.08231253-1.93309333 23.1327232-11.33332053 44.3476352-27.19866026 61.33069654-37.6653088 40.43123733-99.99475307 43.83134293-141.72599787 7.71600213-12.33315947-10.66639787-30.49834453-11.0997344-43.43075307-1.0162112-28.73225493 22.58259413-54.93107627 48.54782933-77.86295893 77.14582613-10.19922453 12.7490304-9.9656384 30.93168107 0.5665024 43.3980064 14.99975893 17.71547733 23.36521813 39.33097813 24.16530773 62.54665814 1.90034773 55.2803648-39.73156907 101.71172373-94.79581226 105.69470506-16.2986752 1.18321493-29.49850667 13.78270613-31.4316 30.01479894a481.28027947 481.28027947 0 0 0-3.06609814 73.71297493c0.43333653 12.09957227 1.26617067 24.03214187 2.5661792 35.83154347 1.7660896 16.2659296 14.8327552 28.96474987 31.1314304 30.31496853 23.0988864 1.90034773 44.2646784 11.29948373 61.26411414 27.16591467 40.46507413 37.6980544 43.83134293 99.96200747 7.7334656 141.75983573-10.66639787 12.36590507-11.0997344 30.58239253-0.99983787 43.430752 22.66554987 28.76500053 48.59803947 54.96382293 77.16329067 77.82912213 12.69991253 10.2330624 30.89893547 9.9667296 43.3980064-0.58287466 17.699104-14.9822944 39.33097813-23.33247253 62.56412266-24.14893547 56.36425067-2.600016 101.69535147 39.74794133 105.69470507 94.82855787 1.1668416 16.2986752 13.76633387 29.46576107 29.9984256 31.41522773a482.9230272 482.9230272 0 0 0 73.72934827 3.0497248 489.40014613 489.40014613 0 0 0 35.79879786-2.5661792c16.2659296-1.7660896 28.96474987-14.8327552 30.33134187-31.1314304 1.90034773-23.11525867 11.26564587-44.31488853 27.1320768-61.29685973 37.6653088-40.43123733 99.99475307-43.8149696 141.79367253-7.6996288 12.33315947 10.66639787 30.59876587 11.0997344 43.3980064 0.9834656 28.76500053-22.61533973 54.93107627-48.5642016 77.82912214-77.12945387 10.2330624-12.7490304 9.9656384-30.9480544-0.6003392-43.41437867-14.96592107-17.68273067-23.33247253-39.29823253-24.13256214-62.53028586-1.90034773-55.26399253 39.73156907-101.69535147 94.82855787-105.694704 16.33251307-1.19958827 29.49850667-13.78270613 31.4316-30.01479894 2.8663488-24.16530773 3.90002453-48.96479253 3.03335253-73.69660266-0.43333653-12.09957227-1.26617067-24.04851413-2.5661792-35.8479168-1.7660896-16.23209173-14.8327552-28.9483776-31.0986848-30.2985952-23.0988864-1.91672107-44.33126187-11.315856-61.3306976-27.16591467-40.43123733-37.6980544-43.79750507-99.97837973-7.69962773-141.75983573 10.66639787-12.36590507 11.0997344-30.564928 0.99983787-43.41437974-22.63171307-28.74862827-48.5642016-54.9474496-77.16329067-77.84658666-12.76649493-10.21668907-30.93168107-9.9656384-43.3980064 0.60034026-17.6663584 14.96592107-39.26439573 23.29863573-62.5302848 24.1150976-56.46357973 2.43301333-101.69535147-39.73156907-105.69470507-94.81218453-1.1668416-16.2986752-13.76633387-29.48213333-29.9984256-31.41522773a482.92957653 482.92957653 0 0 0-56.89691626-3.35098667z m-19.86578454 68.72906453c1.79992747-0.08295573 3.59985493-0.16700373 5.3997824-0.21612266a423.58873173 423.58873173 0 0 1 37.93164054 0.39949973c19.1322784 76.9460768 88.82952747 131.52677333 171.5246752 128.89401067 28.2650816-0.99983787 55.89707733-9.08259307 80.12896853-23.21567894a406.8556288 406.8556288 0 0 1 30.564928 30.81488747c-40.89841067 67.91369387-29.89909653 156.40921387 30.16542933 212.40671253 20.66587307 19.2829088 45.93144 33.0983616 73.0962624 40.24786027 0.06658347 1.83376427 0.16700373 3.68281067 0.2335872 5.516576a422.13372693 422.13372693 0 0 1-0.39949866 37.88143147c-76.96245013 19.0995328-131.76036053 89.46261227-128.89401174 171.50830186 0.96709227 28.2650816 9.06621973 55.91345067 23.19930667 80.16280534a412.80772373 412.80772373 0 0 1-30.7985152 30.54855573c-67.9300672-40.88094613-156.3928416-29.881632-212.4230848 30.149056-19.59945173 21.0151616-33.26536533 45.91397547-40.33190827 73.11263573-1.79992747 0.08295573-3.56601707 0.16700373-5.36594453 0.21612267-12.63223787 0.4169632-25.3659872 0.3329152-37.9316416-0.39949867-19.0995328-76.96245013-88.29577067-131.42744427-171.5246752-128.89401173-28.73225493 1.0162112-55.99749867 8.9494272-80.2293888 23.18184213a418.3079264 418.3079264 0 0 1-30.49834453-30.76467733c40.89841067-67.9300672 29.89909653-156.4255872-30.1654304-212.40671253-20.66587307-19.2829088-45.93144-33.11473387-73.0962624-40.2642336-0.06658347-1.83376427-0.16700373-3.6664384-0.23358614-5.50020267-0.43333653-12.5994912-0.2663328-25.2819392 0.43333547-37.88143147 76.92970453-19.0995328 131.72652267-89.46261227 128.86017493-171.5246752-0.96709227-28.7147904-8.899216-55.99749867-23.16546986-80.2293888a414.99077653 414.99077653 0 0 1 30.76467733-30.48197226c67.963904 40.96499413 156.3928416 29.881632 212.42308587-30.149056 19.59945173-21.0151616 33.26536533-45.89651093 40.33190826-73.11263574z m19.6987808 204.3239584c-112.92825173 0-204.79003947 91.86178773-204.79003946 204.79003947s91.86178773 204.79003947 204.79003946 204.79003947 204.79003947-91.86178773 204.79003947-204.79003947-91.86178773-204.79003947-204.79003947-204.79003947z m0 341.31709654c-75.29677973 0-136.52705707-61.2466496-136.52705706-136.52705707s61.23027733-136.52705707 136.52705706-136.52705707 136.52705707 61.2466496 136.52705707 136.52705707-61.23027733 136.52705707-136.52705707 136.52705707z"  horiz-adv-x="1024" />

    
    <glyph glyph-name="icon_workset" unicode="&#60322;" d="M739.452315 80.01461400000005c-35.344996 0-63.996546 28.652574-63.996546 63.996546 0 35.344996 28.652574 63.996546 63.996546 63.996547s63.996546-28.652574 63.996547-63.996547-28.652574-63.996546-63.996547-63.996546z m-79.54773 207.990055a31.998785 31.998785 0 0 1-29.05371-18.589381l-45.50131-98.585319a63.995523 63.995523 0 0 1 0-53.636594l45.50131-98.585319a31.998785 31.998785 0 0 1 29.05371-18.589381h165.144224a31.998785 31.998785 0 0 1 29.053709 18.589381l45.501311 98.585319a63.995523 63.995523 0 0 1 0 53.636594l-45.501311 98.585319a31.998785 31.998785 0 0 1-29.053709 18.589381H659.904585z m0 63.996546h165.144224c37.443797 0 71.468728-21.770839 87.160105-55.768141l45.50131-98.585319a127.991046 127.991046 0 0 0 0-107.273189l-45.50131-98.585319c-15.690354-33.997302-49.716308-55.768141-87.160105-55.768141H659.904585c-37.443797 0-71.468728 21.770839-87.160106 55.768141l-45.50131 98.585319a127.991046 127.991046 0 0 0 0 107.273189l45.50131 98.585319c15.690354 33.998325 49.716308 55.768141 87.160106 55.768141zM166.504198 767.981325c-26.508747 0-47.998177-21.48943-47.998177-47.998178v-191.990662c0-26.508747 21.48943-47.998177 47.998177-47.998177h191.990662c26.508747 0 47.998177 21.48943 47.998178 47.998177V719.9841710000001c0 26.508747-21.48943 47.998177-47.998178 47.998177H166.504198z m-15.999392 63.997569h223.989447c53.016471 0 95.995331-42.97886 95.995331-95.995331v-223.989447c0-53.016471-42.97886-95.995331-95.995331-95.995331H150.504806c-53.016471 0-95.995331 42.97886-95.995331 95.995331V735.983563c0 53.016471 42.97886 95.995331 95.995331 95.995331z m0-543.974225c-17.672498 0-31.998785-14.326287-31.998785-31.998785v-223.989447c0-17.672498 14.326287-31.998785 31.998785-31.998785h223.989447c17.672498 0 31.998785 14.326287 31.998785 31.998785V256.00588400000004c0 17.672498-14.326287 31.998785-31.998785 31.998785H150.504806z m0 63.996546h223.989447c53.016471 0 95.995331-42.97886 95.995331-95.995331v-223.989447c0-53.016471-42.97886-95.995331-95.995331-95.995331H150.504806c-53.016471 0-95.995331 42.97886-95.995331 95.995331V256.00588400000004c0 53.017494 42.97886 95.995331 95.995331 95.995331zM630.481462 767.981325c-17.672498 0-31.998785-14.326287-31.998785-31.998785v-223.989447c0-17.672498 14.326287-31.998785 31.998785-31.998785h223.989447c17.672498 0 31.998785 14.326287 31.998785 31.998785V735.983563c0 17.672498-14.326287 31.998785-31.998785 31.998785H630.481462z m0 63.997569h223.989447c53.016471 0 95.995331-42.97886 95.995331-95.995331v-223.989447c0-53.016471-42.97886-95.995331-95.995331-95.995331H630.481462c-53.016471 0-95.995331 42.97886-95.995332 95.995331V735.983563c0 53.016471 42.97886 95.995331 95.995332 95.995331z"  horiz-adv-x="1024" />

    
    <glyph glyph-name="zhongzhi" unicode="&#58916;" d="M835.3 666.145c-75.364 75.363-175.564 116.868-282.144 116.868-167.96 0-317.548-104.986-374.888-262.125l-41.355 72.205c-9.563 16.697-30.856 22.483-47.553 12.918-16.7-9.563-22.483-30.853-12.919-47.553l85.12-148.613c6.436-11.24 18.181-17.533 30.267-17.533a34.678 34.678 0 0 1 17.285 4.615l148.614 85.118c16.698 9.564 22.483 30.854 12.918 47.553-9.562 16.698-30.852 22.483-47.553 12.918l-79.329-45.436c47.348 129.64 170.79 216.248 309.394 216.248 181.592 0 329.326-147.735 329.326-329.325 0-181.59-147.734-329.326-329.326-329.326-140.956 0-266.236 89.568-311.742 222.883-6.217 18.21-26.02 27.936-44.232 21.718-18.211-6.215-27.936-26.02-21.72-44.232 55.138-161.53 206.921-270.057 377.693-270.057 106.58 0 206.78 41.506 282.145 116.87S952.17 277.423 952.17 384.003 910.664 590.781 835.3 666.145z"  horiz-adv-x="1024" />

    
    <glyph glyph-name="shenhetijiao" unicode="&#58938;" d="M849.28-42.17999999999995H644.79v48h156.49V705.83H680.81v48h168.47v-796.01zM379.21-42.17999999999995H174.72V753.83h168.47v-48H222.72v-700.01h156.49v-48zM704.81 640H319.19V823h385.62z m-337.62 48h289.62v87H367.19zM488 432h48v-337.63h-48zM366.65 352.80999999999995l145.352 145.352 33.941-33.94L400.59 318.86699999999996zM478.065 464.227l33.941 33.941L657.36 352.81500000000005l-33.941-33.94z"  horiz-adv-x="1024" />

    
    <glyph glyph-name="biaojiyidu" unicode="&#58887;" d="M880.6079542-66h-566.76136289L62 172.63636406V752.6079542C62 797.35227246 98.64772754 834 143.3920458 834h737.2159084c44.74431826 0 81.3920458-36.64772754 81.3920458-81.3920458v-737.2159084c0-44.74431826-36.64772754-81.3920458-81.3920458-81.3920458zM340.2670458 0.47727305000000797h540.3409084c8.09659073 0 14.91477276 6.81818203 14.91477275 14.91477275v737.2159084c0 8.09659073-6.81818203 14.91477276-14.91477275 14.91477275h-737.2159084c-8.09659073 0-14.91477276-6.81818203-14.91477275-14.91477275v-551.4204542l211.78977275-200.71022695zM424.6420458 239.11363623L258.02272724 389.53977246c-7.24431797 6.81818203-8.09659073 18.32386377-1.27840868 25.56818174l20.45454521 22.58522754c6.81818203 7.24431797 18.32386377 8.09659073 25.56818174 1.27840957l127.84090869-115.48295508c6.39204521-5.53977246 15.34090869-6.39204521 22.58522754-1.70454551l315.34090928 215.62500059c8.09659073 5.53977246 19.60227247 3.40909102 25.14204492-4.68750058l17.04545508-25.14204493c5.53977246-8.09659073 3.40909102-19.60227247-4.68749971-25.1420458L446.80113652 237.40909072c-6.81818203-4.68749971-16.19318145-3.83522695-22.15909072 1.70454551z"  horiz-adv-x="1024" />

    
    <glyph glyph-name="daochu14px-copy" unicode="&#60559;" d="M675.59000029 834h245.448c11.31000029 0 20.94599971-4.00200029 28.91999972-12.12000029 8.01600029-7.87799971 12.01799971-17.50200029 12.0179997-28.8779994V547.62000001c0-11.376-4.00200029-20.99999971-12.01199942-29.0040003-7.98000029-7.99800029-17.61599971-11.99999971-28.926-11.99999971-11.304 0-20.94000029 4.00200029-28.92000057 11.99999971-8.02199972 8.00399971-12.006 17.62800029-12.00600001 29.00400028V694.248L540.66799971 354.87599998999997c-7.85999971-7.87799971-17.44800029-11.88-28.764-11.88-11.72400029 0-21.46200029 3.88199971-29.25 11.62800002-7.78799971 7.87799971-11.65200029 17.62800029-11.65199942 29.24999999 0 11.376 3.91799971 20.88 11.80199972 28.87800029l339.45000028 339.372h-146.7c-11.304 0-20.91600001 4.00200029-28.944 11.9999997-7.96200029 8.00399971-11.98799999 17.62800029-11.988 28.87800029 0 11.376 4.02599971 20.99999971 11.988 28.99800001 8.02799999 7.99800029 17.64 11.99999971 28.9379997 11.99999971h0.0420003z m-490.92000029 0h286.362c11.29799971 0 20.90999971-4.00200029 28.93799971-12.12000029 7.974-7.87799971 11.98799999-17.50200029 11.98799998-28.8779994 0-11.25-4.02000029-20.88-11.98799998-28.87800032-8.02799999-7.99800029-17.64-11.99999971-28.93799971-11.9999997H184.67c-11.29200029 0-20.94000029-3.99599999-28.90199971-12.00000058-8.0399997-7.99800029-12.01200029-17.622-12.01200028-28.99799999v-654.50399943c0-11.25 3.97199971-20.87399971 12.01200028-28.872 7.96200029-7.99800029 17.61000029-11.99999971 28.90199971-12.00000058h654.54000028c11.29799971 0 20.90999971 4.00200029 28.9379997 12.00000058 7.974 7.99800029 11.98799999 17.62800029 11.98800002 28.87799942V342.99600001c0 11.25 4.02000029 20.87399971 11.98799999 28.872 8.02199972 8.00399971 17.64600029 11.99999971 28.9500003 11.9999997 11.29799971 0 20.90999971-3.99599999 28.9379997-11.9999997 7.96200029-7.99800029 11.98799999-17.622 11.98800001-28.872v-286.38000001c0-33.86999971-11.98799999-62.74800001-35.95200029-86.74800029-23.976-24.00000029-52.91399971-35.874-86.76-35.874H184.72399999c-33.88799971 0-62.77799971 11.88-86.76600028 35.88000029-23.976 24.00000029-35.96400001 52.87200029-35.964 86.74800029V711.12000029c0 33.87599999 11.98799999 62.74800001 35.964 86.74799942 23.98799971 24.00000029 52.87799971 36 86.76600028 36L184.67 834z"  horiz-adv-x="1024" />

    
    <glyph glyph-name="baocun" unicode="&#58894;" d="M581.10714248 608.80714248a34.71428584 34.71428584 0 0 0-34.52142832 34.5214292v34.58571416a34.71428584 34.71428584 0 0 0 34.52142832 34.52142832 34.71428584 34.71428584 0 0 0 34.58571504-34.52142832v-34.58571416a34.71428584 34.71428584 0 0 0-34.58571504-34.5214292z m370.02857168 75.98571504c6.87857167-6.87857167 10.28571416-15.49285752 10.41428584-24.23571504v-622.28571416a104.14285752 104.14285752 0 0 0-103.75714248-103.82142832H166.14285752A104.14285752 104.14285752 0 0 0 62.45 38.14285752000001V729.66428584A104.14285752 104.14285752 0 0 0 166.14285752 833.48571416h622.35c8.61428584 0 17.35714248-3.47142833 24.23571416-10.35l138.34285665-138.34285664zM667.57142832 764.37857167H356.3v-185.01428583c0-12.15 10.47857168-22.5 22.5-22.5H645.07142832c12.21428584 0 22.5 10.47857168 22.5 22.5V764.37857167zM304.55 3.621428329999958h414.77142832V242.18571415999997a38.31428584 38.31428584 0 0 1-37.9285708 38.05714336h-338.78571504a38.31428584 38.31428584 0 0 1-38.05714248-38.05714336v-238.5z m587.82857168 34.58571415h-0.12857168V646.8l-117.57857168 117.57857168h-37.99285664v-185.01428584c0-50.14285752-41.46428584-91.60714248-91.60714336-91.60714336H378.8c-50.14285752 0-91.60714248 41.46428584-91.60714248 91.60714336V764.37857167H166.20714248a34.71428584 34.71428584 0 0 1-34.58571416-34.58571415V38.14285752000001a34.71428584 34.71428584 0 0 1 34.58571416-34.58571504h69.10714336V242.18571415999997c0 58.82142832 48.47142832 107.22857168 107.22857168 107.22857168h340.65c58.75714248 0 107.22857168-48.40714248 107.22857081-107.22857168v-238.5h67.37142919a34.71428584 34.71428584 0 0 1 34.58571416 34.52142832z"  horiz-adv-x="1024" />

    
    <glyph glyph-name="shangchuan" unicode="&#58898;" d="M546.28571469 712.66285687V246.85714312000005a34.28571469 34.28571469 0 0 0-68.57142938 1e-8V713.14285688L358.60571469 594.03428531a34.28571469 34.28571469 0 0 0-48.48 48.54857157L487.24571469 819.70285688A34.14857156 34.14857156 0 0 0 511.72571469 829.71428531a34.14857156 34.14857156 0 0 0 24.54857062-10.01142844L713.39428531 642.51428531a34.28571469 34.28571469 0 0 0-48.54857062-48.54857062L546.28571469 712.66285687z m342.85714219-398.19428531a34.28571469 34.28571469 0 1 0 68.57142843 0V41.142856879999954a102.85714313 102.85714313 0 0 0-102.85714218-102.85714219h-685.71428625A102.85714313 102.85714313 0 0 0 66.28571469 41.142856879999954V314.4a34.28571469 34.28571469 0 1 0 68.57142844 0V41.142856879999954a34.28571469 34.28571469 0 0 1 34.28571375-34.28571376h685.71428625a34.28571469 34.28571469 0 0 1 34.28571375 34.28571375V314.46857156z"  horiz-adv-x="1024" />

    
    <glyph glyph-name="xiazai1" unicode="&#58900;" d="M350.91458333 606.69375c0 40.33125-0.1125 80.775 0 121.10625C351.08333333 790.35 393.77708333 832.93125 456.10208333 832.9875c40.78125 0.1125 81.50625 0 122.11875 0 63.84375 0 106.3125-42.24375 106.425-105.8625 0.05625-83.7 0.05625-167.2875-0.225-250.9875 0-8.83125 2.41875-11.3625 11.25-11.25 36.5625 0.39375 73.0125 0 109.575-0.28125 5.45625 0 10.96875-0.50625 16.2-1.575 14.0625-2.98125 16.9875-9.50625 9.3375-21.9375a85.8375 85.8375 0 0 0-12.375-15.75c-66.9375-67.33125-133.875-134.55-200.98125-201.65625-21.54375-21.54375-43.5375-42.58125-65.475-63.73125a91.6875 91.6875 0 0 0-11.25-9c-15.91875-10.96875-28.6875-11.3625-44.325-0.1125a222.6375 222.6375 0 0 0-26.26875 22.3875 104170.275 104170.275 0 0 0-253.35 253.85625c-5.79375 5.79375-10.06875 13.1625-14.4 20.1375-4.21875 6.91875-1.18125 12.0375 5.9625 13.95 6.80625 1.85625 13.89375 3.0375 20.8125 3.15 36.9 0.45 73.74375 0.675 110.64375 0.45 8.4375 0 11.53125 1.85625 11.41875 11.08125-0.5625 43.70625-0.28125 87.24375-0.28125 130.8375zM83.33333333 197.75625000000002h61.2c6.8625 0 4.95-5.4 4.95-9.16875 0.16875-38.8125 0-77.625 0.1125-116.4375 0-4.10625 0-8.26875 0.45-12.4875a33.1875 33.1875 0 0 1 29.08125-28.8c3.825-0.45 7.70625-0.45 11.5875-0.45h653.90625c5.7375 0 11.64375 0.1125 17.2125 1.6875 15.1875 4.10625 23.9625 17.1 24.01875 35.15625 0.225 39.4875 0.1125 78.8625 0.1125 118.29375 0 12.2625 0 12.2625 12.7125 12.2625h53.60625v-128.8125c-0.05625-61.7625-42.8625-104.85-104.5125-104.9625H188.07083333c-61.65 0-104.56875 43.0875-104.625 104.79375-0.1125 39.43125 0 78.80625 0 118.29375C83.33333333 190.33124999999995 83.33333333 193.42499999999995 83.33333333 197.8125z"  horiz-adv-x="1024" />

    


  </font>
</defs>
</svg>
